<svg xmlns="http://www.w3.org/2000/svg">
<defs>
<font font-weight="400" horiz-adv-x="667" id="FontID1" vert-origin-x="45" vert-origin-y="90" vert-adv-y="90"><font-face id="font-face4241" font-family="Arial"/><glyph id="glyph4247" horiz-adv-x="722" unicode="D"><path id="path4249" d="M76.997 0v716.002h246.687c55.666 0 98.15-3.33 127.489-10.17 40.996-9.496 76.004-26.68 104.989-51.342 37.843-31.997 66.012-72.639 84.685-122.316 18.816-49.678 28.17-106.513 28.17-170.328 0-54.355-6.343-102.51-19.028-144.497-12.65-42.024-28.984-76.855-48.827-104.351-19.984-27.497-41.67-49.146-65.34-64.843-23.491-15.804-51.98-27.816-85.323-36C417.015 4.004 378.676 0 335.341 0H76.996zm94.996 84.013h152.682c47.162 0 84.155 4.322 110.977 13.145 26.859 8.859 48.19 21.19 64.17 37.17 22.359 22.5 39.827 52.831 52.335 90.851 12.508 37.985 18.85 83.977 18.85 138.155 0 75.012-12.33 132.662-36.85 172.986-24.484 40.359-54.32 67.359-89.504 81-25.335 9.851-66.155 14.67-122.493 14.67H171.993V84.013z"/></glyph><glyph id="glyph4251" horiz-adv-x="722" unicode="U"><path id="path4253" d="M545.992 716.002h94.997V302.495c0-72-8.15-129.155-24.308-171.497-16.334-42.166-45.673-76.678-88.016-103.146-42.485-26.504-98.009-39.863-166.997-39.863-66.827 0-121.678 11.516-164.163 34.69-42.662 23.173-72.993 56.48-91.17 100.312-18.177 43.83-27.319 103.678-27.319 179.505v413.507h94.997v-413.33c0-62.186 5.81-108.178 17.327-137.517 11.48-29.48 31.146-52.335 59.315-68.139 28.028-16.015 62.327-24.023 102.828-24.023 69.343 0 118.843 15.838 148.36 47.339 29.48 31.677 44.15 92.339 44.15 182.34v413.33z"/></glyph><glyph id="glyph4255" horiz-adv-x="550" unicode="Γ"><path id="path4257" d="M79.019 716.012h448.994v-84.02h-354.03V0H79.019v716.012z"/></glyph><glyph id="glyph4259" horiz-adv-x="556" unicode="0"><path id="path4261" d="M41.991 353.334c0 84.492 8.674 152.827 26.004 204.494 17.499 51.837 43.332 91.674 77.67 119.51 34.167 27.837 77.33 41.67 129.337 41.67 38.325 0 72-7.673 101.16-23.169 29.008-15.496 53.008-37.834 71.68-67.012 18.652-28.99 33.316-64.498 43.994-106.319 10.828-41.84 16.157-98.344 16.157-169.174 0-84.001-8.655-151.996-25.833-203.662C465 97.835 439.167 58 404.83 29.992c-34.167-27.988-77.5-41.991-129.828-41.991-68.826 0-123.006 24.492-162.333 73.664-47.17 60-70.678 157.174-70.678 291.67zm90.01-.34c0-117.828 13.664-196.16 41.16-234.825C200.658 79.334 234.674 60 275.002 60c40.328 0 74.326 19.503 101.841 58.338 27.497 38.986 41.16 117.167 41.16 234.655 0 117.847-13.663 196.179-41.16 234.844-27.345 38.835-61.682 58.168-102.842 58.168-40.328 0-72.662-17.179-96.832-51.346-30.161-43.484-45.166-124.159-45.166-241.666z"/></glyph><glyph id="glyph4263" horiz-adv-x="277" unicode="t"><path id="path4265" d="M256.998 78.485L269.01.85c-24.662-5.173-46.843-7.866-66.19-7.866-31.819 0-56.48 5.032-74.162 15.166-17.504 10.17-29.834 23.35-36.992 39.862C84.508 64.49 81.001 99.178 81.001 152.01v298.987H16.016v67.997H81v128.34l88.016 52.83v-181.17h87.981v-67.997h-87.981V147.013c0-25.193 1.488-41.35 4.642-48.508 3.012-7.158 8.008-12.827 15.023-17.185 6.98-4.146 16.973-6.307 29.977-6.307 9.673 0 22.5 1.169 38.339 3.472z"/></glyph><glyph id="glyph4267" horiz-adv-x="499" unicode="c"><path id="path4269" d="M405.003 189.994L491 178.018c-9.496-59.174-33.485-105.343-72.32-138.863-38.835-33.485-86.67-50.139-143.186-50.139-70.831 0-127.844 23.138-170.824 69.485-43.158 46.347-64.666 112.678-64.666 198.994 0 56.02 9.32 104.847 27.815 146.836 18.497 41.847 46.666 73.347 84.686 94.182 37.843 20.976 78.981 31.5 123.662 31.5 56.162 0 102.332-14.173 138.013-42.662 35.823-28.523 58.82-69.024 68.812-121.359l-85.005-13.004c-8.15 34.831-22.5 61.017-43.335 78.662-20.657 17.504-45.638 26.363-74.977 26.363-44.327 0-80.327-15.839-108.178-47.516-27.673-31.82-41.492-81.816-41.492-150.485 0-69.662 13.323-120.19 40.004-151.69 26.823-31.5 61.654-47.304 104.493-47.304 34.654 0 63.497 10.488 86.493 31.642 23.173 21.012 37.843 53.504 44.008 97.335z"/></glyph><glyph id="glyph4271" horiz-adv-x="722" unicode="R"><path id="path4273" d="M79.016 0v716.002h317.306c63.851 0 112.36-6.484 145.525-19.347 33.166-12.826 59.67-35.504 79.477-67.996 19.843-32.493 29.694-68.493 29.694-107.824 0-50.847-16.512-93.686-49.36-128.517-32.81-34.831-83.48-56.835-152.15-66.331 25.157-11.977 44.15-23.989 57.154-35.646 27.673-25.335 53.823-57.19 78.343-95.351L708.845 0H590.498L495.82 148.997c-27.496 43.157-50.315 76.004-68.138 98.823-18 22.855-34.016 38.693-48.19 47.835-13.996 9-28.488 15.343-43.158 19.028-10.665 2.161-28.169 3.33-52.654 3.33H174.014V0H79.018zm94.997 400.007H377.33c43.335 0 76.997 4.5 101.34 13.5 24.342 8.823 42.838 23.173 55.346 42.98 12.65 19.666 18.992 40.997 18.992 64.17 0 33.84-12.189 61.832-36.673 83.659-24.485 21.862-63.178 32.67-116.01 32.67H174.014v-236.98z"/></glyph><glyph id="glyph4275" horiz-adv-x="666" unicode="A"><path id="path4277" d="M-1.488 0l274.644 716.002H377.33L668.84 0H561.016l-82.843 216.994H176.67L99 0H-1.49zm205.974 293.991h244.029L373.82 492.489c-22.5 60.343-39.473 110.162-51.307 149.529-9.85-46.701-23.032-92.516-39.508-137.836l-78.52-210.191z"/></glyph><glyph id="glyph4279" horiz-adv-x="333" unicode="-"><path id="path4281" d="M30.985 215.008v87.996h272.02v-87.996H30.985z"/></glyph><glyph id="glyph4283" horiz-adv-x="777" unicode="O"><path id="path4285" d="M48.012 348.487c0 118.666 31.997 211.679 95.812 278.86 63.85 67.146 146.163 100.666 247.183 100.666 66.154 0 125.647-15.839 178.832-47.339 53.008-31.5 93.509-75.508 121.324-132.025 27.85-56.304 41.847-120.332 41.847-191.801 0-72.532-14.67-137.517-44.008-194.671-29.34-57.331-70.832-100.666-124.513-130.005C510.665 2.656 452.66-12.013 390.51-12.013c-67.5 0-127.666 16.334-180.852 48.862-53.009 32.493-93.332 76.82-120.651 133.16C61.653 226.17 48.01 285.661 48.01 348.485zm97.973-1.665c0-86.139 23.174-153.993 69.52-203.494 46.312-49.5 104.494-74.34 174.51-74.34 71.327 0 129.828 25.016 175.997 75.013C612.004 193.997 635 265.006 635 356.99c0 58.181-9.85 108.993-29.516 152.328-19.665 43.335-48.472 76.997-86.315 100.843-38.02 23.846-80.505 35.823-127.666 35.823-67.005 0-124.655-22.996-172.986-68.989-48.367-45.992-72.532-122.67-72.532-230.175z"/></glyph><glyph id="glyph4287" horiz-adv-x="556" unicode="L"><path id="path4289" d="M72.993 0v716.002h94.996V84.013h351.995V0H72.993z"/></glyph><glyph id="glyph4291" horiz-adv-x="499" unicode="k"><path id="path4293" d="M66.33 0v715.99h88.006V308.171l207.998 210.833h113.67L277.993 326.16 496 .001H387.673L215.326 265.172l-60.989-59.331V0H66.332z"/></glyph><glyph id="glyph4295" horiz-adv-x="277" unicode="I"><path id="path4297" d="M93.013 0v716.002h94.996V0H93.013z"/></glyph><glyph id="glyph4299" horiz-adv-x="556" unicode="h"><path id="path4301" d="M66.004 0v715.99h88.005V458.342c40.819 47.818 92.322 71.651 154.663 71.651 38.159 0 71.324-7.5 99.67-22.655 28.15-15.176 48.32-36 60.488-62.668 12.167-26.667 18.163-65.502 18.163-116.177V0H399.01v328.166c0 43.828-9.507 75.838-28.346 95.833-18.993 19.996-45.66 30.004-80.33 30.004-25.84 0-50.174-6.672-73.003-20.17-22.83-13.497-38.988-31.835-48.822-54.992-9.681-23.004-14.5-54.84-14.5-95.506V.001H66.004z"/></glyph><glyph id="glyph4303" horiz-adv-x="499" unicode="y"><path id="path4305" d="M62.008-199.49l-9.992 81.32c19.311-5.174 36-7.831 50.316-7.831 19.665 0 35.327 3.33 46.984 9.85 11.835 6.484 21.508 15.662 29.02 27.32 5.492 8.822 14.492 30.65 26.823 65.657a614.402 614.402 0 0 0 7.83 21.508L16.017 518.992h93.97l108.354-299.66c14.173-37.843 26.646-77.847 37.843-119.836 10.134 39.508 22.146 78.52 36.142 116.824l110.658 302.672h87.84L294.662-9c-21.154-56.835-37.666-95.847-49.5-117.32-15.662-28.842-33.662-49.996-53.824-63.496-20.338-13.5-44.504-20.197-72.496-20.197-17.008 0-36 3.508-56.835 10.523z"/></glyph><glyph id="glyph4307" horiz-adv-x="610" unicode="F"><path id="path4309" d="M81.993 0v716.002h482.992v-84.013H176.99V409.007h336.014v-84.012H176.99V0H81.993z"/></glyph><glyph id="glyph4311" horiz-adv-x="556" unicode="2"><path id="path4313" d="M502.997 83.988V0H28.995c-.648 21.18 2.835 41.508 10.326 61.148 12.19 32.195 31.668 64.024 58.517 95.165 26.848 31.182 65.157 67.183 115.008 108.002 77.468 63.862 130.153 114.36 157.65 151.697 27.658 37.337 41.508 72.65 41.508 105.977 0 34.827-12.514 64.186-37.5 88.16-24.985 23.851-57.665 35.838-97.837 35.838-42.48 0-76.496-12.635-102.009-37.985-25.472-25.188-38.309-60.176-38.673-105.005l-89.982 8.99c6.156 67.345 29.481 118.693 69.815 154.005 40.496 35.353 94.679 53.009 162.833 53.009 68.68 0 123.188-18.992 163.198-57.18 40.172-38.147 60.136-85.486 60.136-141.816 0-28.67-5.831-56.856-17.656-84.514-11.663-27.82-31.182-56.978-58.314-87.673-27.335-30.494-72.528-72.65-135.499-125.982-52.847-44.343-86.863-74.35-101.847-90.184-14.983-15.834-27.335-31.668-37.175-47.664h351.502z"/></glyph><glyph id="glyph4315" horiz-adv-x="556" unicode="e"><path id="path4317" d="M419.991 167.99l90.993-11.976c-14.138-52.832-40.642-94.005-79.336-123.166-38.657-29.198-87.98-43.832-148.147-43.832-75.685 0-135.674 23.316-180 69.981-44.328 46.489-66.509 112.005-66.509 196.16 0 87.024 22.358 154.666 67.182 202.678 44.823 48.154 103.005 72.178 174.509 72.178 69.166 0 125.647-23.528 169.478-70.69 43.83-47.161 65.835-113.492 65.835-198.993 0-5.174-.177-13.004-.496-23.316H126.993c3.33-56.835 19.346-100.524 48.33-130.678 28.844-30.153 65.021-45.319 108.179-45.319 32.173 0 59.67 8.469 82.347 25.477 22.82 17.008 40.82 44.185 54.142 81.496zM131.989 309.015h288.994c-3.827 43.654-14.988 76.323-33.166 98.15-27.815 33.84-64.134 50.847-108.639 50.847-40.358 0-74.162-13.5-101.694-40.5-27.319-27-42.484-63.178-45.496-108.497z"/></glyph><glyph id="glyph4319" horiz-adv-x="722" unicode="C"><path id="path4321" d="M586.989 251.152l94.997-23.988c-19.807-77.848-55.489-136.985-106.973-177.84-51.52-40.82-114.521-61.336-189.001-61.336-76.997 0-139.678 15.662-188.01 47.162-48.33 31.359-85.004 76.855-110.161 136.348-25.158 59.67-37.843 123.485-37.843 191.836 0 74.517 14.173 139.501 42.662 194.99 28.524 55.524 69.024 97.69 121.5 126.497 52.513 28.843 110.34 43.194 173.34 43.194 71.683 0 131.848-18.178 180.498-54.674 48.827-36.497 82.843-87.662 102.013-153.674l-93.013-22.004c-16.512 52.016-40.677 90-72.177 113.67-31.5 23.846-71.15 35.681-118.985 35.681-54.851 0-100.843-13.181-137.66-39.508-36.85-26.327-62.858-61.831-77.67-106.158-14.988-44.504-22.5-90.355-22.5-137.517 0-60.84 8.823-113.989 26.505-159.344 17.645-45.496 45.142-79.335 82.488-101.835 37.347-22.5 77.67-33.662 121.182-33.662 52.973 0 97.655 15.343 134.328 45.851 36.674 30.65 61.477 76.005 74.481 136.312z"/></glyph><glyph id="glyph4323" horiz-adv-x="610" unicode="T"><path id="path4325" d="M258.982 0v631.989H22.996v84.013H590v-84.013H354.014V0h-95.032z"/></glyph><glyph id="glyph4327" horiz-adv-x="499" unicode="s"><path id="path4329" d="M31.004 154.985l86.99 14.032c4.853-34.867 18.495-61.513 40.854-80.186 22.323-18.496 53.646-27.815 93.65-27.815 40.5 0 70.513 8.15 90.178 24.661 19.488 16.335 29.339 35.646 29.339 57.827 0 19.843-8.859 35.505-26.363 46.843-12.33 7.831-42.307 17.646-90 29.835-64.312 16.158-108.816 30.154-133.832 41.989-24.804 12.012-43.654 28.311-56.481 49.323-12.827 20.835-19.347 44.008-19.347 69.343 0 23.173 5.35 44.504 15.839 64.17 10.665 19.665 25.016 36 43.158 49.004 13.677 9.992 32.35 18.496 55.843 25.477 23.67 7.016 48.827 10.523 75.827 10.523 40.678 0 76.324-5.846 107.01-17.68 30.826-11.658 53.504-27.674 68.173-47.659 14.492-20.161 24.662-47.02 30.154-80.681l-85.997-11.977c-3.827 27-15.165 48.154-33.839 63.32-18.673 15.165-45 22.677-79.158 22.677-40.181 0-68.988-6.662-86.174-20.02-17.15-13.323-25.83-28.984-25.83-46.807 0-11.34 3.507-21.686 10.665-30.863 7.157-9.319 18.354-17.15 33.662-23.315 8.858-3.33 34.512-10.843 77.492-22.5 62.009-16.512 105.343-30.19 130.005-40.678 24.662-10.488 44.008-26.008 58.005-45.992 14.173-20.162 21.189-45.178 21.189-75.154 0-29.197-8.504-56.694-25.69-82.525-17.15-25.83-41.81-45.815-73.984-59.988-32.35-14.174-68.847-21.154-109.524-21.154-67.324 0-118.808 13.996-154.135 41.811C63.32 58.82 40.82 100.17 31.005 154.984z"/></glyph><glyph id="glyph4331" horiz-adv-x="708" unicode="▒"><path id="path4333" d="M50.336 910.181h60.5v-61.027h-60.5v61.027zm121.487 0h60.663v-61.027h-60.663v61.027zm121.69 0h60.986v-61.027h-60.987v61.027zm121.486 0h60.987v-61.027h-60.987v61.027zm122.175 0h60.5v-61.027h-60.5v61.027zm121.487 0h60.5v-61.027h-60.5v61.027zM-10.65 788.492h60.987v-60.986H-10.65v60.986zm121.487 0h60.987v-60.986h-60.987v60.986zm121.65 0h61.026v-60.986h-61.027v60.986zm122.012 0h60.5v-60.986h-60.5v60.986zm121.487 0h61.19v-60.986h-61.19v60.986zm121.69 0h60.986v-60.986h-60.987v60.986zM50.334 667.005h60.5v-60.986h-60.5v60.986zm121.487 0h60.663v-60.986h-60.663v60.986zm121.69 0h60.986v-60.986H293.51v60.986zm121.486 0h60.987v-60.986h-60.987v60.986zm122.175 0h60.5v-60.986h-60.5v60.986zm121.487 0h60.5v-60.986h-60.5v60.986zM-10.652 544.992h60.987V484.33h-60.987v60.662zm121.487 0h60.987V484.33h-60.987v60.662zm121.65 0h61.026V484.33h-61.027v60.662zm122.012 0h60.5V484.33h-60.5v60.662zm121.487 0h61.19V484.33h-61.19v60.662zm121.69 0h60.986V484.33h-60.987v60.662zM50.333 423.343h60.5v-61.027h-60.5v61.027zm121.487 0h60.663v-61.027H171.82v61.027zm121.69 0h60.986v-61.027H293.51v61.027zm121.486 0h60.987v-61.027h-60.987v61.027zm122.175 0h60.5v-61.027h-60.5v61.027zm121.487 0h60.5v-61.027h-60.5v61.027zM-10.653 301.816h60.987v-61.148h-60.987v61.148zm243.136 0h61.027v-61.148h-61.027v61.148zm122.013 0h60.5v-61.148h-60.5v61.148zm121.487 0h61.19v-61.148h-61.19v61.148zm121.69 0h60.986v-61.148h-60.987v61.148zm-486.84 0h60.987v-61.148h-60.987v61.148zm547.825-121.649h60.5v-60.986h-60.5v60.986zm-121.487 0h60.5v-60.986h-60.5v60.986zm-122.175 0h60.987v-60.986h-60.987v60.986zm-121.487 0h60.987v-60.986h-60.987v60.986zm-121.689 0h60.663v-60.986H171.82v60.986zm-121.487 0h60.5v-60.986h-60.5v60.986zM-10.653 58.154h60.986V-2.508h-60.986v60.662zm121.487 0h60.986V-2.508h-60.986v60.662zm121.649 0h61.027V-2.508h-61.027v60.662zm122.013 0h60.5V-2.508h-60.5v60.662zm121.487 0h61.189V-2.508h-61.19v60.662zm121.689 0h60.986V-2.508h-60.986v60.662zm60.986-121.649h60.5v-60.986h-60.5v60.986zm-121.487 0h60.5v-60.986h-60.5v60.986zm-122.175 0h60.987v-60.986h-60.987v60.986zm-121.487 0h60.987v-60.986h-60.987v60.986zm-121.689 0h60.663v-60.986H171.82v60.986zm-121.487 0h60.5v-60.986h-60.5v60.986zm-60.986-121.487h60.986v-61.189h-60.986v61.189zm121.487 0h60.986v-61.189h-60.986v61.189zm121.649 0h61.027v-61.189h-61.027v61.189zm122.013 0h60.5v-61.189h-60.5v61.189zm121.487 0h61.189v-61.189h-61.19v61.189zm121.689 0h60.986v-61.189h-60.986v61.189z"/></glyph><glyph id="glyph4335" horiz-adv-x="556" unicode="δ"><path id="path4337" d="M85 716.004h391.998v-72.001H203.004c32.478-33.166 83.502-73.824 152.831-121.851 61.837-42.804 105.005-82.49 129.505-119.138 24.5-36.851 36.649-86.499 36.649-149.186 0-83.988-22.637-149.146-68.154-195.513-45.517-46.165-104.843-69.329-177.816-69.329-79.858 0-140.034 25.998-180.368 77.833-40.496 51.996-60.663 113.67-60.663 185.187 0 82.975 21.341 146.513 64.024 190.168 42.804 43.654 93.828 66.494 153.155 68.842C221.836 532.156 166.154 579.171 85 651.82v64.186zm40.01-465.174c0-55.155 14.66-100.672 43.816-136.349 29.157-35.636 66.494-53.495 111.85-53.495 39.807 0 74.997 15.186 105.49 45.68 30.494 30.493 45.841 78.682 45.841 144.65 0 61.027-14.497 108.164-43.492 141.532-29.197 33.49-65.684 50.134-109.662 50.134-48.676 0-86.539-18.83-113.509-56.492-26.848-37.499-40.334-82.813-40.334-135.66z"/></glyph><glyph id="glyph4339" horiz-adv-x="556" unicode="p"><path id="path4341" d="M65.987-198.984v717.981h80.003v-68.152c18.859 26.34 40.159 46.143 64.018 59.333 23.662 13.15 52.483 19.804 86.342 19.804 44.333 0 83.31-11.3 117.131-34.136 33.86-22.678 59.333-54.844 76.696-96.185 17.166-41.497 25.828-86.814 25.828-136.344 0-52.836-9.489-100.476-28.505-142.998-19.017-42.324-46.656-74.806-82.996-97.484-36.182-22.52-74.333-33.82-114.335-33.82-29.332 0-55.671 6.142-78.822 18.465C188 19.843 168.983 35.316 153.983 54.175v-253.16H65.987zm80.003 455.333c0-66.499 13.504-115.674 40.356-147.525 26.97-31.812 59.648-47.836 97.996-47.836 38.978 0 72.325 16.496 100.004 49.529C412.18 143.51 426 194.497 426 263.673c0 65.987-13.505 115.32-40.67 148.155-27.167 32.836-59.491 49.175-97.17 49.175-37.324 0-70.318-17.52-98.98-52.325-28.86-35.001-43.191-85.672-43.191-152.329z"/></glyph><glyph id="glyph4343" horiz-adv-x="722" unicode="N"><path id="path4345" d="M76.004 0v716.002h97.336l375.664-562.008v562.008h90.993V0H542.66L166.997 562.008V0H76.004z"/></glyph><glyph id="glyph4347" horiz-adv-x="833" unicode="m"><path id="path4349" d="M66.012 0v518.992h78.981V445.68c16.158 25.335 37.843 45.816 64.843 61.158 27 15.485 57.65 23.174 92.162 23.174 38.34 0 69.84-8.008 94.324-23.847 24.52-16.016 41.847-38.162 51.839-66.827 41.35 60.485 94.855 90.674 160.832 90.674 51.662 0 91.524-14.173 119.162-42.662 27.85-28.524 41.847-72.355 41.847-131.529V-.001h-88.017v326.66c0 35.008-2.976 60.343-8.645 75.827-5.67 15.52-16.016 27.851-31.182 37.347-14.988 9.496-32.67 14.174-52.83 14.174-36.674 0-67.005-12.19-91.17-36.355-24.166-24.307-36.143-63.142-36.143-116.47V0H374v336.829c0 39.012-7.158 68.35-21.508 87.84-14.315 19.488-37.808 29.338-70.335 29.338-24.662 0-47.481-6.52-68.493-19.524-21.012-12.968-36.178-31.996-45.674-57.154-9.319-24.98-13.996-61.158-13.996-108.32V0h-87.98z"/></glyph><glyph id="glyph4351" horiz-adv-x="666" unicode="Y"><path id="path4353" d="M278.825 0v303.345L2.835 716.002h113.989l141.521-216.675c26.327-40.146 50.811-80.327 73.17-120.509 21.827 37.524 48.331 79.512 79.158 126.178l138.651 211.006h110.517L373.823 303.345V0h-94.997z"/></glyph><glyph id="glyph4355" horiz-adv-x="722" unicode="H"><path id="path4357" d="M81 0v716.002h94.997V420.984h369.995v295.018h94.997V0h-94.997v337.007H175.997V0H81.001z"/></glyph><glyph id="glyph4359" horiz-adv-x="556" unicode="4"><path id="path4361" d="M323.002 0v171.007H12v80.996l327.009 464h71.982v-464h97.003v-80.996H410.99V0h-87.989zm0 252.003v322.171L98.495 252.003h224.507z"/></glyph><glyph id="glyph4363" horiz-adv-x="666" unicode="E"><path id="path4365" d="M79.016 0v716.002H595.99v-84.013H174.013V411.983H568.99v-83.977H174.013V84.012h438.984V0H79.017z"/></glyph><glyph id="glyph4367" horiz-adv-x="666" unicode="V"><path id="path4369" d="M280.986 0L4.322 716.002h102.686l185.99-520.339c14.847-41.67 27.496-80.646 37.489-117.178 11.02 39.19 23.846 78.166 38.516 117.178l193.005 520.339h96.662L379.49 0h-98.504z"/></glyph><glyph id="glyph4371" horiz-adv-x="556" unicode="1"><path id="path4373" d="M371.993 0h-87.997v560.339c-21.18-20.329-49-40.496-83.34-60.663-34.34-20.166-65.32-35.352-92.654-45.355v85c49.161 23.002 92.168 51.025 128.979 84.03 36.85 32.8 63.011 64.63 78.359 95.65h56.653v-719z"/></glyph><glyph id="glyph4375" horiz-adv-x="556" unicode="u"><path id="path4377" d="M405.006 0v77.168c-40.34-58.83-95.004-88.158-164.17-88.158-30.505 0-59.004 5.822-85.498 17.488-26.514 11.84-46.183 26.493-59.004 44.177C83.491 68.49 74.507 90.164 69.34 115.828c-3.51 17.335-5.342 44.679-5.342 82.009v321.166h88.005V231.831c0-45.834 1.832-76.84 5.32-92.671 5.517-23.157 17.183-41.168 35.172-54.317 17.837-13.17 39.838-19.842 66.178-19.842 26.32 0 51.002 6.672 73.985 20.17 23.004 13.497 39.336 31.987 49.018 55.166C391.16 163.494 396 197.335 396 241.49v277.512h88.006V0h-79z"/></glyph><glyph id="glyph4379" horiz-adv-x="666" unicode="B"><path id="path4381" d="M72.993 0v716.002h268.69c54.639 0 98.47-7.158 131.636-21.685 33.024-14.492 58.854-36.816 77.528-66.97 18.815-30.011 28.17-61.511 28.17-94.5 0-30.508-8.363-59.35-24.84-86.351-16.511-27-41.527-48.827-75.012-65.48 43.335-12.686 76.678-34.336 99.851-65.021 23.316-30.508 34.973-66.65 34.973-108.32 0-33.662-7.157-64.843-21.33-93.686-14.174-28.807-31.643-50.988-52.478-66.65-20.834-15.52-47.02-27.354-78.343-35.327C430.338 4.004 391.822 0 346.184 0H72.994zm94.996 414.995h154.844c41.989 0 72.178 2.835 90.32 8.327 24.166 7.193 42.343 19.17 54.497 35.858 12.189 16.654 18.354 37.489 18.354 62.647 0 23.846-5.67 44.823-17.185 62.823-11.303 18.177-27.638 30.685-48.827 37.347-21.154 6.661-57.509 9.992-108.816 9.992H167.99V414.995zm0-330.983h178.337c30.685 0 52.157 1.17 64.665 3.472 21.686 3.863 40.005 10.347 54.674 19.524 14.67 9.142 26.681 22.5 36.178 40.005 9.496 17.504 14.173 37.665 14.173 60.484 0 26.823-6.839 49.997-20.693 69.84-13.642 19.842-32.67 33.661-56.977 41.669-24.166 8.008-59.174 11.976-104.67 11.976H167.99V84.012z"/></glyph><glyph id="glyph4383" horiz-adv-x="666" unicode="S"><path id="path4385" d="M45.992 229.998l89.01 8.008c4.18-36 13.995-65.516 29.515-88.69 15.485-22.996 39.473-41.634 72-55.984C269.01 79.158 305.685 72 346.327 72c36.177 0 67.996 5.35 95.67 16.157 27.673 10.843 48.154 25.69 61.654 44.505 13.5 18.85 20.338 39.33 20.338 61.335 0 22.323-6.484 41.846-19.488 58.677-13.004 16.654-34.512 30.65-64.489 42.166-19.169 7.335-61.69 18.992-127.525 34.83-65.835 15.84-111.828 30.65-138.155 44.647-34.157 18-59.492 40.359-76.181 66.863-16.831 26.468-25.158 56.303-25.158 89.15 0 36.32 10.346 70.158 30.827 101.517 20.516 31.5 50.35 55.311 89.859 71.646 39.331 16.335 83.162 24.52 131.316 24.52 53.008 0 99.851-8.504 140.351-25.69 40.5-17.007 71.646-42.165 93.473-75.508 21.863-33.165 33.52-70.831 35.186-112.82l-90.993-6.98c-4.855 45.142-21.331 79.3-49.5 102.332-28.17 23.138-69.84 34.654-124.833 34.654-57.33 0-99.178-10.489-125.363-31.5-26.15-21.012-39.33-46.347-39.33-76.005 0-25.654 9.354-46.843 27.85-63.497 18.319-16.511 65.835-33.661 142.832-50.988 76.997-17.504 129.828-32.67 158.493-45.674 41.492-19.17 72.355-43.335 92.162-72.85 19.843-29.304 29.693-63.143 29.693-101.482 0-38.161-10.843-73.843-32.67-107.505-21.862-33.661-53.008-59.847-93.862-78.485-40.82-18.673-86.635-28.027-137.8-28.027-64.702 0-118.843 9.496-162.533 28.346-43.831 18.815-77.99 47.162-102.828 85.182-24.98 37.807-37.985 80.646-39.331 128.481z"/></glyph><glyph id="glyph4387" horiz-adv-x="277"/><glyph id="glyph4389" horiz-adv-x="333" unicode="r"><path id="path4391" d="M65 0v519.003h79v-79.501c20.17 36.829 38.835 61.163 55.996 72.829 17.16 11.84 36 17.662 56.496 17.662 29.677 0 59.833-9.333 90.513-27.823l-31.334-81.18C294.324 433.004 273 439 251.674 439c-19.167 0-36.35-5.843-51.504-17.335-15.176-11.49-26.013-27.496-32.511-47.992-9.834-31.182-14.653-65.35-14.653-102.505V0H65z"/></glyph><glyph id="glyph4393" horiz-adv-x="708" unicode="░"><path id="path4395" d="M49.844 910.154h60.987v-60.987H49.844v60.987zm243.16 0h60.986v-60.987h-60.987v60.987zm243.67 0h60.987v-60.987h-60.986v60.987zM171.345 788.496h61.145v-60.987h-61.145v60.987zm243.671 0h60.633v-60.987h-60.633v60.987zm243.16 0h60.986v-60.987h-60.987v60.987zM536.673 666.995h60.987v-60.987h-60.986v60.987zm-243.67 0h60.986v-60.987h-60.987v60.987zm-243.16 0h60.987v-60.987H49.844v60.987zm608.332-122.013h60.986V484.35h-60.986v60.632zm-243.16 0h60.633V484.35h-60.632v60.632zm-243.67 0h61.144V484.35h-61.144v60.632zm-121.5-121.658h60.986v-60.987H49.845v60.987zm243.159 0h60.986v-60.987h-60.986v60.987zm243.67 0h60.987v-60.987h-60.986v60.987zm121.502-121.501h60.986v-61.144h-60.986v61.144zm-243.16 0h60.633v-61.144h-60.632v61.144zm-243.67 0h61.144v-61.144h-61.144v61.144zM49.845 180.165h60.986v-60.987H49.845v60.987zm243.159 0h60.986v-60.987h-60.986v60.987zm243.67 0h60.987v-60.987h-60.986v60.987zM171.347 58.152h61.144V-2.48h-61.144v60.632zm243.67 0h60.633V-2.48h-60.632v60.632zm243.16 0h60.986V-2.48h-60.986v60.632zM536.675-63.506h60.986v-60.987h-60.986v60.987zm-243.671 0h60.986v-60.987h-60.986v60.987zm-243.16 0h60.987v-60.987H49.845v60.987zm121.502-121.501h61.144v-61.144h-61.144v61.144zm243.67 0h60.633v-61.144h-60.632v61.144zm243.16 0h60.986v-61.144h-60.986v61.144z"/></glyph><glyph id="glyph4397" horiz-adv-x="556" unicode="a"><path id="path4399" d="M405.003 64.985c-32.67-27.815-64.17-47.304-94.324-58.82-30.189-11.515-62.504-17.15-97.193-17.15-56.977 0-100.808 13.82-131.493 41.635C51.343 58.323 36 93.828 36 136.985c0 25.335 5.847 48.508 17.327 69.52 11.658 21.012 26.823 37.666 45.496 50.316 18.851 12.685 39.828 22.358 63.355 28.842 17.327 4.5 43.477 8.823 78.308 13.181 71.008 8.327 123.521 18.497 157.005 30.154.354 12.012.496 19.666.496 22.82 0 35.68-8.327 60.838-24.98 75.508-22.5 19.842-56.02 29.657-100.347 29.657-41.493 0-72.143-7.334-91.844-21.826-19.807-14.493-34.3-40.146-43.83-77.174l-85.997 12.012c7.83 36.85 20.693 66.685 38.693 89.327 18 22.677 43.973 40.004 77.989 52.335 33.838 12.19 73.347 18.355 117.993 18.355 44.327 0 80.504-5.173 108.32-15.662 27.673-10.523 48.189-23.527 61.193-39.366 13.004-15.804 22.146-35.823 27.496-59.989 2.835-14.988 4.323-41.988 4.323-80.823V217.49c0-81.497 1.843-132.981 5.492-154.808C495.996 40.819 503.331 19.984 513.996 0h-91.985c-8.858 18.496-14.527 40.181-17.008 64.985zm-7.016 195.025c-31.996-13.004-79.973-24.024-144-33.024-36.32-5.138-61.974-10.984-76.998-17.469-14.988-6.52-26.504-16.016-34.653-28.346-8.185-12.508-12.331-26.327-12.331-41.67 0-23.173 8.823-42.662 26.646-58.182 17.858-15.484 43.866-23.315 78.024-23.315 33.839 0 63.993 7.335 90.497 22.146 26.327 14.67 45.815 34.867 58.146 60.343 9.531 19.843 14.173 49.004 14.173 87.52l.496 31.997z"/></glyph><glyph id="glyph4401" horiz-adv-x="666" unicode="P"><path id="path4403" d="M76.997 0v716.002h270.32c47.517 0 83.836-2.339 109.029-6.839 35.15-5.846 64.666-17.008 88.477-33.342 23.846-16.477 43.016-39.473 57.508-68.99 14.492-29.48 21.685-62.008 21.685-97.512 0-60.662-19.346-112.147-58.181-154.135-38.658-42.2-108.851-63.177-210.155-63.177H171.994V0H76.997zm94.996 375.983h184.998c61.336 0 104.67 11.339 130.501 34.193 25.69 22.82 38.517 54.816 38.517 96.308 0 29.835-7.512 55.524-22.678 76.855-15.165 21.33-35.15 35.504-59.847 42.343-15.98 4.145-45.496 6.307-88.3 6.307h-183.19V375.983z"/></glyph><glyph id="glyph4405" horiz-adv-x="394" unicode="τ"><path id="path4407" d="M246.983 448.004V0h-87.997v448.004H21.989v70.989h350.004v-70.989h-125.01z"/></glyph><glyph id="glyph4409" horiz-adv-x="832" unicode="M"><path id="path4411" d="M75.01 0v715.99h141.993l169.338-506.814c15.656-47.186 26.995-82.51 34.169-106.016 8.155 26.013 20.998 64.347 38.333 114.847L631.168 715.99h126.84V0h-91.014v599.006L457.993 0H372.67L166.002 609.995V0H75.009z"/></glyph><glyph id="glyph4413" horiz-adv-x="556" unicode="o"><path id="path4415" d="M32.991 259.502c0 95.833 26.668 166.83 80.177 212.991 44.504 38.333 98.995 57.5 163.167 57.5 71.172 0 129.5-23.332 174.833-69.994 45.158-46.489 67.835-111.01 67.835-193.171 0-66.658-10.008-118.99-30.003-157.171-19.995-38.16-49.17-67.814-87.504-88.987-38.158-21.172-80.002-31.66-125.16-31.66-72.677 0-131.333 23.156-176.164 69.667-44.83 46.488-67.181 113.495-67.181 200.824zm90.011-.174c0-66.331 14.5-116.003 43.501-148.82 29.153-33.012 65.655-49.497 109.832-49.497 43.676 0 80.003 16.485 109.156 49.65 29 33.166 43.501 83.666 43.501 151.501 0 63.998-14.653 112.514-43.828 145.33-29.153 33.013-65.502 49.498-108.829 49.498-44.177 0-80.679-16.332-109.832-49.149-29-32.838-43.501-82.336-43.501-148.514z"/></glyph><glyph id="glyph4417" horiz-adv-x="222" unicode="i"><path id="path4419" d="M66.012 616.009v99.993h87.981v-99.993h-87.98zM66.012 0v518.992h87.981V0h-87.98z"/></glyph><glyph id="glyph4421" horiz-adv-x="777" unicode="G"><path id="path4423" d="M411.984 280.986v84.013H715.01V99.672c-46.524-36.992-94.5-65.02-144.001-83.658-49.5-18.673-100.347-28.027-152.328-28.027-70.335 0-134.186 15.023-191.694 45.177-57.331 30.012-100.808 73.666-129.97 130.501-29.339 57.012-44.008 120.651-44.008 190.844 0 69.662 14.492 134.647 43.654 195.167 29.161 60.308 71.008 105.166 125.682 134.328 54.638 29.339 117.639 44.008 189 44.008 51.663 0 98.505-8.362 140.317-25.193 41.847-16.83 74.658-40.146 98.327-69.98 23.847-30.013 41.847-69.167 54.178-117.356l-85.5-23.315c-10.843 36.32-24.166 64.985-40.005 85.997-15.98 20.835-38.658 37.488-68.316 49.996-29.516 12.508-62.362 18.85-98.504 18.85-43.158 0-80.505-6.696-112.182-19.842-31.5-13.181-56.835-30.508-76.324-52.158-19.346-21.508-34.335-45.177-45-70.831-18.177-44.504-27.32-92.517-27.32-144.355 0-63.993 10.985-117.497 32.812-160.655 22.004-43.016 54-75.012 95.847-95.847C321.664 82.489 366.168 72 413.33 72c40.997 0 81 8.008 120.013 23.846 38.977 15.98 68.493 32.812 88.654 50.989v134.15H411.984z"/></glyph><glyph id="glyph4425" horiz-adv-x="556" unicode="ñ"><path id="path4427" d="M66.008 0v518.992h79.007V445.33c37.985 56.492 92.978 84.677 164.817 84.677 31.344 0 60.015-5.67 86.175-16.846 26.16-11.177 45.84-25.999 58.84-44.181 12.999-18.142 22.151-39.807 27.335-64.834 3.158-16.32 4.818-44.829 4.818-85.486V0h-87.997v315.34c0 35.838-3.32 62.647-10.164 80.343-6.844 17.656-18.993 31.83-36.325 42.48-17.332 10.489-37.863 15.834-61.189 15.834-37.337 0-69.49-11.825-96.663-35.677-27.172-23.65-40.657-68.802-40.657-135.134V0H66.007zm60.986 582.004c-.324 33.49 8.99 60.177 27.82 80.181 18.507 19.803 42.36 29.805 71.354 29.805 20.167 0 47.664-8.504 82.328-25.674 19.154-9.476 34.502-14.336 45.841-14.336 10.488 0 18.507 2.835 24.014 8.504 5.467 5.508 9.314 16.847 11.663 33.53h62.97c-.971-37.012-10.326-64.67-27.982-83.177-17.656-18.507-40.01-27.82-67.344-27.82-20.329 0-47.34 9.151-80.668 27.334-21.827 11.825-37.823 17.656-47.987 17.656-11.015 0-20.005-3.847-26.687-11.663-7.167-7.694-10.65-19.195-10.326-34.34h-64.996z"/></glyph></font><font font-weight="400" horiz-adv-x="667" id="FontID0" vert-origin-x="45" vert-origin-y="90" vert-adv-y="90"><font-face id="font-face4430" font-family="Arial Unicode MS"/><glyph id="glyph4436" horiz-adv-x="600" unicode="├"><path id="path4438" d="M610.828 346.168H342.837V-217.83h-85.004v1212h85.004V431.176h267.991v-85.004z"/></glyph><glyph id="glyph4440" horiz-adv-x="600" unicode="╝"><path id="path4442" d="M257.834 431.172H-11.161v84.992H172.83v478.002h85.004V431.172zm170.338-170.007H-11.161v85.004h353.999v647.997h85.334V261.165z"/></glyph><glyph id="glyph4444" horiz-adv-x="600" unicode="╚"><path id="path4446" d="M610.828 431.172H342.837v562.994h85.334V516.164h182.657v-84.992zm0-170.007H172.83v733.001h85.004V346.169h352.995v-85.004z"/></glyph><glyph id="glyph4448" horiz-adv-x="600" unicode="┤"><path id="path4450" d="M342.837-217.83h-85.004v563.998H-11.162v85.004h268.995v562.994h85.004v-1212z"/></glyph><glyph id="glyph4452" horiz-adv-x="600" unicode="╗"><path id="path4454" d="M428.172-217.83h-85.334v649.001h-354v84.992h439.334V-217.83zm-170.338 0H172.83v478.994H-11.16v85.004h268.994V-217.83z"/></glyph><glyph id="glyph4456" horiz-adv-x="600" unicode="┐"><path id="path4458" d="M342.837-217.83h-85.004v563.998H-11.162v85.004h354V-217.83z"/></glyph><glyph id="glyph4460" horiz-adv-x="600" unicode="╥"><path id="path4462" d="M610.828 346.168H428.171V-217.83h-85.334v563.998h-85.004V-217.83H172.83v563.998H-11.16v85.004h621.99v-85.004z"/></glyph><glyph id="glyph4464" horiz-adv-x="600" unicode="▄"><path id="path4466" d="M-11.161-217.83v605.998h621.99V-217.83h-621.99z"/></glyph><glyph id="glyph4468" horiz-adv-x="600" unicode="║"><path id="path4470" d="M428.172-217.83h-85.334v1212h85.334v-1212zm-170.338 0H172.83v1212h85.004v-1212z"/></glyph><glyph id="glyph4472" horiz-adv-x="600" unicode="╟"><path id="path4474" d="M610.828 346.168H428.171V-217.83h-85.334v1212h85.334V431.176h182.657v-85.004zM257.833-217.83h-85.004v1212h85.004v-1212z"/></glyph><glyph id="glyph4476" horiz-adv-x="600" unicode="┴"><path id="path4478" d="M610.828 346.168h-621.99v85.004h268.995v562.994h85.004V431.172h267.99v-85.004z"/></glyph><glyph id="glyph4480" horiz-adv-x="600" unicode="╓"><path id="path4482" d="M610.828 346.168H428.171V-217.83h-85.334v563.998h-85.004V-217.83H172.83v649.001h437.998v-85.004z"/></glyph><glyph id="glyph4484" horiz-adv-x="600" unicode="╡"><path id="path4486" d="M342.837-217.83h-85.004v478.994H-11.162v85.004h268.995v85.003H-11.162v84.992h268.995v478.002h85.004v-1212z"/></glyph><glyph id="glyph4488" horiz-adv-x="332" unicode="ⁿ"><path id="path4490" d="M292.995 357.837h-60.992v172.995c0 40.665-16.004 61.004-48 61.004-48.673 0-73.169-26.504-73.169-79.665V357.837h-60v281.326h55.17v-39h1.83C129.33 630.67 157.664 646 192.838 646c23.161 0 43.157-4.665 59.834-14.173 16.83-9.496 27.662-22.157 32.658-37.996 5.173-16.004 7.665-37.334 7.665-64.003v-171.99z"/></glyph><glyph id="glyph4492" horiz-adv-x="600" unicode="╘"><path id="path4494" d="M610.828 261.164H257.833v733.001h85.004V516.163h267.99v-84.992h-267.99v-85.003h267.99v-85.004z"/></glyph></font>
</defs>
</svg>
